Your IP Address is . Location is Your ISP and Government can track your torrent activity! Hide your IP with a VPN!

Rampage 2018 720p NEW HDCAM X264 HQMic LLG

DOWNLOAD TORRENT DOWNLOAD PROTECT YOUR PRIVACY

Posted by LifeLongg •596 on April 16, 2018 in Movies » Action , verified torrent

Size: 1.16 GB , Seeds: 37 , Peers: 15 ( Updated April 22, 2018 - Refresh )

* Download via Magnet Link , * To download files you need a Bittorrent Client , * How to download torrents from Bit Torrent Scene?

Scrape History ( seeds + peers )

Internal Files

Rampage.2018.720p.NEW.HDCAM.X264.HQMic.LLG
Sample.ts   12.19 MB
Rampage.2018.720p.NEW.HDCAM.X264.HQMic.LLG.mp4   1.14 GB

Hash Code

8394c7dfb862e1e5b26007bba8837eb2b44acc5d

Description

SCREENSHOT

SCREENSHOT

******************************Thumbnail:**********************

SCREENSHOT

******************************Screenshots:********************

Screenshot 1

Screenshot 2

Screenshot 3

Screenshot 4

Screenshot 5

Screenshot 6

Screenshot 7

Screenshot 8

Screenshot 9

Screenshot 0

**************************************************************

Complete name : Rampage.2018.720p.NEW.HDCAM.X264.HQMic.LLG.mp4
Format : MPEG-4
Format profile : Base Media
Codec ID : isom (isom/iso2/avc1/mp41)
File size : 1.14 GiB
Duration : 1 h 40 min
Overall bit rate : 1 636 kb/s
Writing application : Lavf57.56.101

Video
ID : 1
Format : AVC
Format/Info : Advanced Video Codec
Format profile : [email protected]
Format settings : CABAC / 4 Ref Frames
Format settings, CABAC : Yes
Format settings, RefFrames : 4 frames
Codec ID : avc1
Codec ID/Info : Advanced Video Coding
Duration : 1 h 40 min
Bit rate : 1 500 kb/s
Width : 1 280 pixels
Height : 608 pixels
Display aspect ratio : 2.105
Frame rate mode : Constant
Frame rate : 23.976 (23976/1000) FPS
Color space : YUV
Chroma subsampling : 4:2:0
Bit depth : 8 bits
Scan type : Progressive
Bits/(Pixel*Frame) : 0.080
Stream size : 1.05 GiB (92%)

Audio
ID : 2
Format : MPEG Audio
Format version : Version 1
Format profile : Layer 3
Format settings : Joint stereo / MS Stereo
Codec ID : mp4a-6B
Duration : 1 h 40 min
Bit rate mode : Constant
Bit rate : 128 kb/s
Channel(s) : 2 channels
Sampling rate : 44.1 kHz
Compression mode : Lossy
Stream size : 91.6 MiB (8%)
Writing library : LAME3.99.5
Default : Yes
Alternate group : 1

Trackers

Refresh Leechers : Updated April 22, 2018

1. udp://tracker.openbittorrent.com:80/announce

2. udp://tracker.opentrackr.org:1337/announce

3. UDP://TRACKER.LEECHERS-PARADISE.ORG:6969/ANNOUNCE

Comments

You must log in to add a comment.

Embed Code

Sharing Widget

Related torrents

FILENAME SIZE SEEDS PEERS ADDED UPD
[i] Rampage 2018.720p.HDCAM.X264-WeWantToSell 3.01 GB 1340 391 1 week 4 days
[i] Rampage 2018 720p HDCAM x264 Dual Audio [Hindi (Cleaned) - English] [MW]
posted by moviefreak in Movies - Action
1.02 GB 495 139 1 week 2 days
[i] Rampage.2018.Movies.720p.HD.TS.x264.AAC.Clean.AC3.Eng.Audio.LLG
posted by LifeLongg in Movies - Action
962.05 MB 101 42 1 week 2 days
[i] Rampage (2018) 720p Pre DvD Dual Audio - HINDI+ENGLISH - AVC - AC 3 - DTOne 3.11 GB 57 123 1 week 3 days
[i] Rampage 2018 720p HDCAM x264 AAC [MW]
posted by moviefreak in Movies - Action
993.21 MB 56 18 1 week 4 days
[i] Rampage 2018.720p.HDCAM.X264-WeWantToSell 3.02 GB 43 14 1 week 4 days
[i] Rampage 2018 720p HDCAM X264 AC3 LLG
posted by LifeLongg in Movies - Action
1.53 GB 24 12 1 week 3 days

Top Movies ( auto generated report )

FILENAME SIZE SEEDS PEERS ADDED UPD
[i] Pacific Rim 2 Uprising 2018 720p korsub hdrip x264 aac2 0-stuttershit 2.75 GB 3342 743 2 days 1 day
[i] Genesis (2018) [WEBRip] [720p] [YTS AM] 965.85 MB 1369 860 2 days 1 day
[i] The Debt Collector (2018) [BluRay] [720p] [YTS AM] 818.36 MB 1311 590 2 days 1 day
[i] downloadhub in Sonu Ke Titu Ki Sweety (2018) Hindi 720p HDRip x264 AAC ESubs - Downloadhub 1.06 GB 1297 910 4 days 2 days
[i] Corbin Nash (2018) [WEBRip] [720p] [YTS AM] 824.69 MB 1240 725 2 days 1 day
[i] Genesis (2018) [WEBRip] [1080p] [YTS AM] 1.81 GB 1010 581 2 days 1 day
[i] Corbin Nash (2018) [WEBRip] [1080p] [YTS AM] 1.53 GB 923 421 2 days 1 day
[i] The Debt Collector (2018) [BluRay] [1080p] [YTS AM] 1.54 GB 774 406 2 days 1 day
[i] Looking Glass (2018) Nicolas Cage.720p.H264.italian.English.Ac3-5.1.sub.ita.eng.MIRCrew 1.89 GB 773 475 3 days 2 days
[i] Avicii True Stories (2017) [WEBRip] [1080p] [YTS AM] 1.54 GB 762 255 1 day 7 hours