Hichki 2018 1080p BluRay AAC 5 1 x264 ESub [MW]

DOWNLOAD TORRENT DOWNLOAD Watch Online

Posted by moviefreak •1541 on May 16, 2018 in Movies » Comedy , verified torrent

Size: 2.01 GB , Seeds: 20 , Peers: 6 ( Updated May 22, 2018 - Refresh )

* Download via Magnet Link , * To download files you need a Bittorrent Client , * How to download torrents from Bit Torrent Scene?

Scrape History ( seeds + peers )

Internal Files

Hichki 2018 1080p BluRay AAC 5.1 x264 ESub [MW]
Hichki 2018 1080p BluRay AAC 5.1 x264 ESub [MW].mkv   2.01 GB

Hash Code

09348c258a2b9fb48de8d3ccaba5a61a52a6c790

Description


SCREENSHOT


General
Format : Matroska
Format version : Version 4 / Version 2
File size : 2.01 GiB
Duration : 1 h 57 min
Overall bit rate : 2 443 kb/s

Video
ID : 1
Format : AVC
Format/Info : Advanced Video Codec
Format profile : [email protected]
Format settings : CABAC / 4 Ref Frames
Format settings, CABAC : Yes
Format settings, RefFrames : 4 frames
Codec ID : V_MPEG4/ISO/AVC
Duration : 1 h 57 min
Bit rate : 2 300 kb/s
Width : 1 920 pixels
Height : 800 pixels
Display aspect ratio : 2.40:1
Frame rate mode : Constant
Frame rate : 24.000 FPS
Color space : YUV
Chroma subsampling : 4:2:0
Bit depth : 8 bits
Scan type : Progressive
Bits/(Pixel*Frame) : 0.062
Stream size : 1.87 GiB (93%)
Writing library : x264 core 155 r2893 b00bcaf
Default : Yes
Forced : No

Audio
ID : 2
Format : AAC
Format/Info : Advanced Audio Codec
Format profile : HE-AAC / LC
Format settings : Explicit
Codec ID : A_AAC-2
Duration : 1 h 57 min
Bit rate : 159 kb/s
Channel(s) : 6 channels
Channel positions : Front: L C R, Side: L R, LFE
Sampling rate : 48.0 kHz / 24.0 kHz
Frame rate : 23.438 FPS (1024 SPF)
Compression mode : Lossy
Stream size : 133 MiB (6%)
Language : Hindi
Default : Yes
Forced : No

Text
ID : 3
Format : VobSub
Muxing mode : zlib
Codec ID : S_VOBSUB
Codec ID/Info : Picture based subtitle format used on DVDs
Duration : 1 h 51 min
Bit rate : 4 974 b/s
Count of elements : 1396
Stream size : 3.98 MiB (0%)
Default : Yes
Forced : No

Menu
00:00:00.000 : en:00:00:00.000
00:01:52.167 : en:00:01:52.083
00:04:35.458 : en:00:04:35.333
00:06:49.458 : en:00:06:49.333
00:12:32.167 : en:00:12:32.125
00:19:50.417 : en:00:19:50.333
00:28:04.417 : en:00:28:04.417
00:33:05.750 : en:00:33:05.625
00:36:43.625 : en:00:36:43.625
00:45:10.208 : en:00:45:10.208
00:53:09.875 : en:00:53:09.875
00:58:55.708 : en:00:58:55.708
01:05:11.833 : en:01:05:11.708
01:08:08.708 : en:01:08:08.708
01:16:45.625 : en:01:16:45.583
01:25:29.917 : en:01:25:29.917
01:30:20.458 : en:01:30:20.375
01:32:18.750 : en:01:32:18.667
01:40:51.083 : en:01:40:51.083
01:51:32.167 : en:01:51:32.125
01:54:05.458 : en:01:54:05.417





http://pichub.site/image/MiI3J
http://pichub.site/image/MiRa5
http://pichub.site/image/MiS8h
http://pichub.site/image/MiD5j
http://pichub.site/image/MiEqr
http://pichub.site/image/Mi7yk

Trackers

Refresh Leechers : Updated May 22, 2018

1. udp://tracker.pirateparty.gr:6969/announce

2. udp://tracker.opentrackr.org:1337/announce

3. udp://tracker.vanitycore.co:6969/announce

4. udp://public.popcorn-tracker.org:6969/announce

5. udp://9.rarbg.to:2740/announce

6. udp://9.rarbg.me:2730/announce

7. udp://9.rarbg.com:2790/announce

8. udp://inferno.demonoid.pw:3391/announce

9. udp://tracker.tntvillage.scambioetico.org:2710/announce

10. udp://tracker.opentrackr.org:1337/announce

11. udp://tracker.zer0day.to:1337/announce

12. udp://tracker.coppersurfer.tk:80/announce

Comments

You must log in to add a comment.

Embed Code

Sharing Widget

Top Movies ( auto generated report )

FILENAME SIZE SEEDS PEERS ADDED UPD
[i] Death Wish (2018) [WEBRip] [720p] [YTS AM] 905.39 MB 4965 4213 10 hours 8 hours
[i] Death Wish (2018) [WEBRip] [1080p] [YTS AM] 1.7 GB 4044 2992 10 hours 8 hours
[i] Gringo (2018) [WEBRip] [720p] [YTS AM] 940.05 MB 2909 2691 10 hours 8 hours
[i] Gringo (2018) [WEBRip] [1080p] [YTS AM] 1.77 GB 2256 1329 10 hours 8 hours
[i] Fahrenheit 451 (2018) [WEBRip] [720p] [YTS AM] 864.37 MB 2206 1124 2 days 1 day
[i] The Strangers Prey at Night (2018) [WEBRip] [720p] [YTS AM] 724.75 MB 2042 1722 10 hours 8 hours
[i] Girl Lost (2018) [WEBRip] [720p] [YTS AM] 806.4 MB 1869 1102 4 days 3 days
[i] Black Water (2018) [WEBRip] [720p] [YTS AM] 897.63 MB 2017 2766 10 hours 8 hours
[i] Fahrenheit 451 (2018) [WEBRip] [1080p] [YTS AM] 1.62 GB 1676 713 2 days 1 day
[i] The Strangers Prey at Night (2018) [WEBRip] [1080p] [YTS AM] 1.37 GB 1539 1026 10 hours 8 hours