9 (2009) 720p Bluary x264 Dual Audio [Hindi + English] Esubs 750MB [MoviezAddiction]

DOWNLOAD ( MAGNET LINK ) DOWNLOAD Watch Online

Posted on May 16, 2018 in Movies » Misc

Size: 745.5 MB , Seeds: 0 , Peers: 0 ( Updated May 16, 2018 - Refresh )

Could not find any peer statistics from any torrent tracker.
This does not mean the torrent is dead.

* Download via Magnet Link , * To download files you need a Bittorrent Client , * How to download torrents from Bit Torrent Scene?

Scrape History ( seeds + peers )

Internal Files

9 (2009) 720p Bluary x264 Dual Audio [Hindi + English] Esubs 750MB [MoviezAddiction]
9   2009) 720p Bluary x264 Dual Audio [Hindi + English] Esubs 750MB [MoviezAddiction].mkv (745.5 MB

MoviezAddiction - Download Watch Online.url   0.1 KB

MoviezAddiction.Website.txt   0.2 KB

Thanks Note.txt   0.9 KB

Hash Code

a32ba602ebc64cb3b77a4caaab3de0731586c91e

Description

Quote:
9 (2009) 720p Bluary x264 Dual Audio [Hindi + English] Esubs 750MB [MoviezAddiction]

SCREENSHOT
Seed Will Be Slow Visit Our Site For Instant Download

Visit & Support www.MoviezAddiction.website
Reliable & Cheapest Web Services From HostNetIndia
Encoded & Uploaded by BestBuyRdp



9 (2009) 720p Bluary x264 Dual Audio [Hindi + English] Esubs 750MB [MoviezAddiction]


SCREENSHOT


Take It Or Leave It
Like Our Work Just leave Only 1 Valuable Comment

Keep Visit and Support http://moviezaddiction.website

SCREENSHOT
General


Format                      : Matroska

Format version              : Version 4 / Version 2

File size                   : 745 MiB

Duration                    : 1 h 19 min

Overall bit rate            : 1 313 kb/s

Movie name                  : www.MoviezAddiction.website

Encoded date                : UTC 2018-04-26 03:34:37

Writing application         : mkvmerge v12.0.0 ('Trust / Lust') 64bit

Writing library             : libebml v1.3.4 + libmatroska v1.4.5


Video

ID                          : 1

Format                      : AVC

Format/Info                 : Advanced Video Codec

Format profile              : [email protected]
Format settings             : CABAC / 5 Ref Frames

Format settings, CABAC      : Yes

Format settings, ReFrames   : 5 frames

Codec ID                    : V_MPEG4/ISO/AVC

Duration                    : 1 h 19 min

Bit rate                    : 1 123 kb/s

Width                       : 1 280 pixels

Height                      : 688 pixels

Display aspect ratio        : 1.85:1

Frame rate mode             : Constant

Frame rate                  : 23.976 (24000/1001) FPS

Original frame rate         : 23.976 (23976/1000) FPS

Color space                 : YUV

Chroma subsampling          : 4:2:0

Bit depth                   : 8 bits

Scan type                   : Progressive

Bits/(Pixel*Frame)          : 0.053

Stream size                 : 638 MiB (86%)

Title                       : www.MoviezAddiction.website

Writing library             : x264 core 132 r2 76a5c3a

ip_ratio=1.40 / aq=1:1.00

Language                    : English

Default                     : Yes

Forced                      : No

Color range                 : Limited

Color primaries             : BT.709

Matrix coefficients         : BT.709


Audio #1

ID                          : 2

Format                      : AAC

Format/Info                 : Advanced Audio Codec

Format profile              : LC

Codec ID                    : A_AAC-2

Duration                    : 1 h 19 min

Bit rate                    : 91.4 kb/s

Channel(s)                  : 6 channels

Channel positions           : Front: L C R, Side: L R, LFE

Sampling rate               : 44.1 kHz

Frame rate                  : 43.066 FPS (1024 SPF)

Compression mode            : Lossy

Stream size                 : 51.8 MiB (7%)

Title                       : www.MoviezAddiction.website

Language                    : Hindi

Default                     : No

Forced                      : No


Audio #2

ID                          : 3

Format                      : AAC

Format/Info                 : Advanced Audio Codec

Format profile              : LC

Codec ID                    : A_AAC-2

Duration                    : 1 h 19 min

Bit rate                    : 96.0 kb/s

Channel(s)                  : 2 channels

Channel positions           : Front: L R

Sampling rate               : 48.0 kHz

Frame rate                  : 46.875 FPS (1024 SPF)

Compression mode            : Lossy

Stream size                 : 54.4 MiB (7%)

Title                       : www.MoviezAddiction.website

Language                    : English

Default                     : No

Forced                      : No


Text

ID                          : 4

Format                      : UTF-8

Codec ID                    : S_TEXT/UTF8

Codec ID/Info               : UTF-8 Plain Text

Duration                    : 1 h 11 min

Bit rate                    : 33 b/s

Count of elements           : 543

Stream size                 : 17.9 KiB (0%)

Title                       : www.MoviezAddiction.website

Default                     : Yes

Forced                      : No



SCREENSHOT
In a world destroyed in a war between man and machine, a hand-stitched doll with the number 9 written on its back comes to life. The world he has awakened in is frightening, but he quickly learns that he is not alone and that there are others like him, also with a single digit written on their back. The first one he encounters is 2 who tells him something of what happened to the world. 2 is also thrilled with the disk 9 is carrying, one with three unique symbols on the front. 9 soon learns that the disk and some of the other dolls who are prepared to die for the good of humankind may be the last hope for man's salvation.

SCREENSHOT
SCREENSHOT
SCREENSHOT
SCREENSHOT
SCREENSHOT
SCREENSHOT
SCREENSHOT

SCREENSHOT
SCREENSHOT

Torrent location

http://www.1337x.to/torrent/2998926/9-2009-720p-Bluary-x264-Dual-Audio-Hindi-English-Esubs-750MB-MoviezAddiction/

Trackers

Refresh Leechers : Updated May 16, 2018

1. udp://9.rarbg.com:2710/announce

2. udp://tracker.opentrackr.org:1337/announce

3. udp://tracker.pirateparty.gr:6969/announce

4. udp://tracker.leechers-paradise.org:6969/announce

5. udp://tracker.coppersurfer.tk:6969/announce

6. udp://tracker.zer0day.to:1337/announce

Comments

You must log in to add a comment.

Embed Code

Sharing Widget

Top Movies ( auto generated report )

FILENAME SIZE SEEDS PEERS ADDED UPD
[i] Death Wish (2018) [WEBRip] [720p] [YTS AM] 905.39 MB 4965 4213 10 hours 8 hours
[i] Death Wish (2018) [WEBRip] [1080p] [YTS AM] 1.7 GB 4044 2992 10 hours 8 hours
[i] Gringo (2018) [WEBRip] [720p] [YTS AM] 940.05 MB 2909 2691 10 hours 8 hours
[i] Gringo (2018) [WEBRip] [1080p] [YTS AM] 1.77 GB 2256 1329 10 hours 8 hours
[i] Fahrenheit 451 (2018) [WEBRip] [720p] [YTS AM] 864.37 MB 2206 1124 2 days 1 day
[i] The Strangers Prey at Night (2018) [WEBRip] [720p] [YTS AM] 724.75 MB 2042 1722 10 hours 8 hours
[i] Girl Lost (2018) [WEBRip] [720p] [YTS AM] 806.4 MB 1869 1102 4 days 3 days
[i] Black Water (2018) [WEBRip] [720p] [YTS AM] 897.63 MB 2017 2766 10 hours 8 hours
[i] Fahrenheit 451 (2018) [WEBRip] [1080p] [YTS AM] 1.62 GB 1676 713 2 days 1 day
[i] The Strangers Prey at Night (2018) [WEBRip] [1080p] [YTS AM] 1.37 GB 1539 1026 10 hours 8 hours