18+ Annihilation 2018 Movies BRRip x264 5.1 with Sample ☻rDX☻

DOWNLOAD ( MAGNET LINK ) DOWNLOAD Watch Online

Posted on May 17, 2018 in Movies » Misc

Size: 846.3 MB , Seeds: 2 , Peers: 16 ( Updated May 17, 2018 - Refresh )

* Download via Magnet Link , * To download files you need a Bittorrent Client , * How to download torrents from Bit Torrent Scene?

Scrape History ( seeds + peers )

Internal Files

18+ Annihilation 2018 Movies BRRip x264 5.1 with Sample ☻rDX☻
Sample ~ 18+ Annihilation 2018 Movies BRRip x264 5.1 ☻rDX☻.mkv   7.3 MB

18+ Annihilation 2018 Movies BRRip x264 5.1 ☻rDX☻.mkv   839.0 MB

Hash Code

4c4d129a8b65b7180578fe28124f359fc198b40e

Description

18+ Annihilation 2018 Movies BRRip x264 5.1 with Sample ☻rDX☻

===============================================================================================


SCREEN SHOTS:

SCREENSHOT

or


http://iphonehosting.eu/2018/5/desktop/1.html

File size : 839 MiB

Duration : 1 h 55 min

Overall bit rate mode : Constant

Overall bit rate : 1 020 kb/s

Movie name : 18+ Annihilation 2018 Movies BRRip x264 5.1 ☻rDX☻


Video

ID : 2

Format : AVC

Format/Info : Advanced Video Codec

Format profile : [email protected]
Format settings, CABAC : Yes

Format settings, ReFrames : 2 frames

Format settings, GOP : M=1, N=12

Codec ID : V_MPEG4/ISO/AVC

Duration : 1 h 55 min

Bit rate mode : Constant

Bit rate : 637 kb/s

Width : 720 pixels

Height : 304 pixels

Display aspect ratio : 2.35:1

Frame rate mode : Constant

Frame rate : 23.976 FPS

Color space : YUV

Chroma subsampling : 4:2:0

Bit depth : 8 bits

Scan type : Progressive

Bits/(Pixel*Frame) : 0.121

Stream size : 506 MiB (60%)

Title : ☻rDX☻

Default : Yes

Forced : No


Audio

ID : 1

Format : AC-3

Format/Info : Audio Coding 3

Mode extension : CM (complete main)

Format settings, Endianness : Big

Codec ID : A_AC3

Duration : 1 h 55 min

Bit rate mode : Constant

Bit rate : 384 kb/s

Channel(s) : 6 channels

Channel positions : Front: L C R, Side: L R, LFE

Sampling rate : 48.0 kHz

Frame rate : 31.250 FPS (1536 spf)

Bit depth : 16 bits

Compression mode : Lossy

Stream size : 316 MiB (38%)

Title : ☻rDX☻

Default : Yes

Forced : No


SCREENSHOT

IMDB : http://www.imdb.com/title/tt2798920

Torrent location

http://www.1337x.to/torrent/2999151/18-Annihilation-2018-Movies-BRRip-x264-5-1-with-Sample-rDX/

Trackers

Refresh Leechers : Updated May 17, 2018

1. udp://9.rarbg.com:2710/announce

2. udp://tracker.opentrackr.org:1337/announce

3. udp://tracker.pirateparty.gr:6969/announce

4. udp://tracker.leechers-paradise.org:6969/announce

5. udp://tracker.coppersurfer.tk:6969/announce

6. udp://tracker.zer0day.to:1337/announce

Comments

You must log in to add a comment.

Embed Code

Sharing Widget

Top Movies ( auto generated report )

FILENAME SIZE SEEDS PEERS ADDED UPD
[i] Death Wish (2018) [WEBRip] [1080p] [YTS AM] 1.7 GB 4055 2408 3 days 2 days
[i] Death Wish (2018) [WEBRip] [720p] [YTS AM] 905.39 MB 3484 2197 3 days 23 hours
[i] Gringo (2018) [WEBRip] [720p] [YTS AM] 940.05 MB 2754 2010 3 days 2 days
[i] Black Water (2018) [WEBRip] [720p] [YTS AM] 897.63 MB 2635 1460 3 days 2 days
[i] The Strangers Prey at Night (2018) [WEBRip] [720p] [YTS AM] 724.75 MB 2024 1073 3 days 2 days
[i] Gringo (2018) [WEBRip] [1080p] [YTS AM] 1.77 GB 1990 898 3 days 2 days
[i] Black Water (2018) [WEBRip] [1080p] [YTS AM] 1.68 GB 1828 905 3 days 2 days
[i] Death Wish (2018) [BluRay] [720p] [YTS AM] 908.79 MB 1692 714 1 day 18 hours
[i] How to Talk to Girls at Parties (2017) [WEBRip] [720p] [YTS AM] 869.28 MB 1574 800 3 days 2 days
[i] The Strangers Prey at Night (2018) [WEBRip] [1080p] [YTS AM] 1.37 GB 1529 695 3 days 2 days